[Login] or [Signup]
Login
Username:
Password:
[Signup]
[Recover Account]


Poll


You must be logged in to view polls



Torrent Details For "Eeda (2018) 720p Malayalam HDRip x264 AAC 1.4GB - MovCr"

Eeda (2018) 720p Malayalam HDRip x264 AAC 1.4GB - MovCr

Download this torrent | Magnet Download
Health:
Seeds: 306
Leechers: 7
Completed: 2,748 
Last Checked: 26-09-2018 15:42:30
External Torrent
Update Stats
Download Magnet


Poster


iMDB
Title: Eeda
Year: 2018
Runtime: 152 minutes
Language: Malayalam
All Genres: Drama, Romance
Director: Ajithkumar
Writing By: Ajithkumar,
Produced By: K.J. Ayyappan,T.R.S. Muthukumaar,Sharmila Rajaa,Sukumar Thekkepatt,
Music: Subramanian K.V. Ashok Ponnappan John P. Varkey Chandran Veyattummal Dawn Vincent
Cast:
Shane Nigaam as Anand
Nimisha Sajayan as Aiswarya
Surabhi Lakshmi as Pushpalata
Alencier Ley Lopez as Govindan
Sudhi Koppa as Thulaseedharan
Sunitha as Radhika
Manikandan R. Achari as Upendran
Babu Annur as Gopalan
P. Balachandran as Sriram Bhatt
Vijayan Karanthoor as Father


Watch-Free-HD     Download

Details
Name:Eeda (2018) 720p Malayalam HDRip x264 AAC 1.4GB - MovCr
Description:
Our Site  www.movcr.com


Eeda (2018) 720p Malayalam HDRip x264 AAC 1.4GB - MovCr



 http://www.imdb.com/title/tt7477108/

 

General
Unique ID                                : 201548479718762307677516024989691242054 (0x97A0D342828147D954AD6BCBCD196646)
Complete name                            : www.MovCr.com - Eeda (2018) 720p Malayalam HDRip x264 AAC 1.4GB - MovCr.mkv
Format                                   : Matroska
Format version                           : Version 4 / Version 2
File size                                : 1.39 GiB
Duration                                 : 2 h 32 min
Overall bit rate                         : 1 305 kb/s
Movie name                               : www.MovCr.com
Encoded date                             : UTC 2018-09-15 12:58:45
Writing application                      : mkvmerge v26.0.0 ('In The Game') 64-bit
Writing library                          : libebml v1.3.6 + libmatroska v1.4.9

Video
ID                                       : 1
Format                                   : AVC
Format/Info                              : Advanced Video Codec
Format profile                           : [email protected]
Format settings                          : CABAC / 4 Ref Frames
Format settings, CABAC                   : Yes
Format settings, RefFrames               : 4 frames
Codec ID                                 : V_MPEG4/ISO/AVC
Duration                                 : 2 h 32 min
Bit rate                                 : 1 223 kb/s
Width                                    : 1 280 pixels
Height                                   : 544 pixels
Display aspect ratio                     : 2.35:1
Frame rate mode                          : Constant
Frame rate                               : 24.000 FPS
Color space                              : YUV
Chroma subsampling                       : 4:2:0
Bit depth                                : 8 bits
Scan type                                : Progressive
Bits/(Pixel*Frame)                       : 0.073
Stream size                              : 1.30 GiB (94%)
Title                                    : www.MovCr.com
Writing library                          : x264 core 155 r2901 7d0ff22
Encoding settings                        : cabac=1 / ref=2 / deblock=1:0:0 / analyse=0x3:0x113 / me=hex / subme=6 / psy=1 / psy_rd=1.00:0.00 / mixed_ref=1 / me_range=16 / chroma_me=1 / trellis=1 / 8x8dct=1 / cqm=0 / deadzone=21,11 / fast_pskip=1 / chroma_qp_offset=-2 / threads=12 / lookahead_threads=2 / sliced_threads=0 / nr=0 / decimate=1 / interlaced=0 / bluray_compat=0 / constrained_intra=0 / bframes=3 / b_pyramid=2 / b_adapt=1 / b_bias=0 / direct=1 / weightb=1 / open_gop=0 / weightp=1 / keyint=240 / keyint_min=24 / scenecut=40 / intra_refresh=0 / rc_lookahead=30 / rc=abr / mbtree=1 / bitrate=1223 / ratetol=1.0 / qcomp=0.60 / qpmin=0 / qpmax=69 / qpstep=4 / vbv_maxrate=25000 / vbv_bufsize=25000 / nal_hrd=none / filler=0 / ip_ratio=1.40 / aq=1:1.00
Default                                  : Yes
Forced                                   : No
Color range                              : Limited
Color primaries                          : BT.709
Transfer characteristics                 : BT.709
Matrix coefficients                      : BT.709

Audio
ID                                       : 2
Format                                   : AAC
Format/Info                              : Advanced Audio Codec
Format profile                           : LC
Codec ID                                 : A_AAC-2
Duration                                 : 2 h 32 min
Bit rate                                 : 80.3 kb/s
Channel(s)                               : 2 channels
Channel positions                        : Front: L R
Sampling rate                            : 48.0 kHz
Frame rate                               : 46.875 FPS (1024 SPF)
Compression mode                         : Lossy
Delay relative to video                  : -62 ms
Stream size                              : 87.6 MiB (6%)
Title                                    : www.MovCr.com
Language                                 : Malayalam
Default                                  : Yes
Forced                                   : No



 
 
 
 
 
 
Category:Movies > Malayalam
Lang:Malayalam
Total Size:1.39 GB
Info Hash:a7ff65c7a6f836d41ab892ce352040f4aae92e3a
Added By:MAZE
Date Added:15-09-2018 14:35:04
Views:297
Hits:17

Download Torrent

Ratings:Not Yet Rated (Log in to rate it)


Tracker:
udp://tracker.coppersurfer.tk:6969/announce


File List: 


Comments

No comments still posted

Powered by 10 Hamsters v2-svn -|- Page Generated In 1.209153 secs.
-|- RSS FEED
Theme By: Nikkbu