[Login] or [Signup]
Login
Username:
Password:
[Signup]
[Recover Account]


Poll


You must be logged in to view polls



Torrent Details For "Koode (2018) Malayalam Org 720p DVDRip x264 DD5.1 ESub TMV"

Koode (2018) Malayalam Org 720p DVDRip x264 DD5.1 ESub TMV

Download this torrent | Magnet Download
Health:
Seeds: 0
Leechers: 0
Completed:
Last Checked: 17-10-2018 13:24:56
External Torrent
Update Stats
Download Magnet


Poster


iMDB
Title: Koode
Year: 2018
Runtime: 155 minutes
Votes: 629
Rating: 7.9/10
Language: Malayalam
Director: Anjali Menon

Music: Raghu Dixit M. Jayachandran
Cast:
Parvathy as Sophie
Prithviraj Sukumaran as Joshua Thomas
Nazriya Nazim as Jennifer Maria Thomas aka Jenny
Prashant Nair as Supervisor / Engineer
Atul Kulkarni as Asharaf
Roshan Mathew as Krishna
Siddharth Menon as Sean
Santhosh Keezhattoor as Darius
Renjith as Aloshy
Parvathi T. as Lilly
Trailers:
Koode Trailer
Koode- Aararo - Song Teaser


Watch-Free-HD     Download

Details
Name:Koode (2018) Malayalam Org 720p DVDRip x264 DD5.1 ESub TMV
Description:
 



=: GENERAL :=
Format : Matroska
Format version : Version 4 / Version 2
File size : 1.46 GiB
Duration : 2h 34mn
Overall bit rate : 1 355 Kbps

=: VIDEO :=
ID : 1
Format : AVC
Format/Info : Advanced Video Codec
Format profile : [email protected]
Format settings, CABAC : Yes
Format settings, ReFrames : 4 frames
Codec ID : V_MPEG4/ISO/AVC
Duration : 2h 34mn
Bit rate : 1 200 Kbps
Width : 1 280 pixels
Height : 544 pixels
Display aspect ratio : 2.35:1
Frame rate mode : Constant
Frame rate : 23.976 (24000/1001) fps
Color space : YUV
Chroma subsampling : 4:2:0
Bit depth : 8 bits
Scan type : Progressive
Bits/(Pixel*Frame) : 0.072
Stream size : 1.29 GiB (88%)

=: AUDIO :=
ID : 2
Format : AC-3
Format/Info : Audio Coding 3
Mode extension : CM (complete main)
Format settings, Endianness : Big
Codec ID : A_AC3
Duration : 2h 34mn
Bit rate mode : Constant
Bit rate : 160 Kbps
Channel(s) : 6 channels
Channel positions : Front: L C R, Side: L R, LFE
Sampling rate : 44.1 KHz
Frame rate : 28.711 fps (1536 spf)
Language : Malayalam
Default : Yes
Forced : No

=: TEXT :=
ID : 3
Format : UTF-8
Codec ID : S_TEXT/UTF8
Codec ID/Info : UTF-8 Plain Text
Duration : 2h 30mn
Bit rate : 10 bps
Count of elements : 375
Stream size : 12.1 KiB (0%)
Language : English
Default : Yes
Forced : No


................................................

Screenshots


 

 

 

 

:love  :love  :love  :love  :love  :love  :love  :love  :love  :love  :love  :love  :love
Category:Movies > Malayalam
Lang:Malayalam
Total Size:1.46 GB
Info Hash:6dc1cec32b1999f1ab6955baac61d7f6c44d0a62
Added By:Unknown
Date Added:17-10-2018 12:37:18
Views:273
Hits:22

Download Torrent

Ratings:Not Yet Rated (Log in to rate it)

  


Tracker:


This Torrent also has backup trackers
URLSeedersLeechersCompleted
http://siena.crazyhd.com/announce.php?pid=24f38f9c23e1abfc08669959fa8c47c7000
http://z.crazyhd.com:2710/24f38f9c23e1abfc08669959fa8c47c7/announce000


File List: 


Comments

No comments still posted

Powered by 10 Hamsters v2-svn -|- Page Generated In 0.689740 secs.
-|- RSS FEED
Theme By: Nikkbu