[Login] or [Signup]
Login
Username:
Password:
[Signup]
[Recover Account]


Poll


You must be logged in to view polls



Torrent Details For "Neelakasham Pachakadal Chuvanna Bhoomi (NPCB) (2013) Malayalam 720p HDRip x264 AC3 5.1 ESubs -S..."

Neelakasham Pachakadal Chuvanna Bhoomi (NPCB) (2013) Malayalam 720p HDRip x264 AC3 5.1 ESubs -S...

Download this torrent | Magnet Download
Health:
Seeds: 0
Leechers: 0
Completed:
Last Checked: 22-11-2018 09:12:13
External Torrent
Update Stats
Download Magnet


Poster


iMDB
Original Title: Neelakasham Pachakadal Chuvanna Bhoomi
Title: Blue Skies, Green Waters, Red Earth
Year: 2013
Runtime: 137 minutes
Votes: 2357
Rating: 7.7/10
Language: Malayalam
Director: Sameer Thahir
Writing By: Hashir Mohammed,
Produced By: Abdul Hameed,Shohaibkhan Hanifrawther,Sunil Sreenivaasan,Sameer Thahir,
Music: Rex Vijayan
Cast:
Dulquer Salmaan as Kasi (Kasim)
Sunny Wayne as Suni (Sunil)
Bala Hijam as Assi
Shane Nigaam as Shyam
Paloma Monappa as Ishitha
Surjith as Raagavan
Shohaibkhan Hanifrawther as Inspector Alex Joseph
Abhija Sivakala as Paru
Reinhard Abernathy as Balu
Dhritiman Chatterjee as
Trailers:
Neelakasham Pachakadal Chuvanna Bhoomi (2013) Trailer


Watch-Free-HD     Download

Details
Name:Neelakasham Pachakadal Chuvanna Bhoomi (NPCB) (2013) Malayalam 720p HDRip x264 AC3 5.1 ESubs -S...
Description:
Neelakasham Pachakadal Chuvanna Bhoomi (NPCB) (2013) Malayalam 720p HDRip x264 AC3 5.1 ESubs -Sun George (Requested)







===================================================================

General
Format                                   : Matroska
Format version                           : Version 4 / Version 2
File size                                : 1.46 GiB
Duration                                 : 2 h 22 min
Overall bit rate                         : 1 467 kb/s
Movie name : Neelakasham Pachakadal Chuvanna Bhoomi (NPCB) (2013) Malayalam 720p HDRip x264 AC3 5.1 ESubs -Sun George (Requested)

===================================================================

Video
ID                                       : 1
Format                                   : AVC
Format/Info                              : Advanced Video Codec
Format profile                           : [email protected]
Format settings                          : CABAC / 5 Ref Frames
Format settings, CABAC                   : Yes
Format settings, RefFrames               : 5 frames
Codec ID                                 : V_MPEG4/ISO/AVC
Duration                                 : 2 h 22 min
Bit rate                                 : 1 250 kb/s
Width                                    : 1 280 pixels
Height                                   : 720 pixels
Display aspect ratio                     : 16:9
Frame rate mode                          : Constant
Frame rate                               : 23.976 (24000/1001) FPS
Color space                              : YUV
Chroma subsampling                       : 4:2:0
Bit depth                                : 8 bits
Scan type                                : Progressive
Bits/(Pixel*Frame)                       : 0.057
Stream size                              : 1.24 GiB (85%)
Title                                    : Sun George

===================================================================

Audio
ID                                       : 2
Format                                   : AC-3
Format/Info                              : Audio Coding 3
Codec ID                                 : A_AC3
Duration                                 : 2 h 22 min
Bit rate mode                            : Constant
Bit rate                                 : 224 kb/s
Channel(s)                               : 6 channels
Channel positions                        : Front: L C R, Side: L R, LFE
Sampling rate                            : 48.0 kHz
Frame rate                               : 31.250 FPS (1536 SPF)
Bit depth                                : 16 bits
Compression mode                         : Lossy
Delay relative to video                  : 31 ms
Stream size                              : 229 MiB (15%)
Title                                    : Sun George
Language                                 : Malay
Service kind                             : Complete Main
Default                                  : Yes
Forced                                   : No

Text
ID                                       : 3
Format                                   : UTF-8
Codec ID                                 : S_TEXT/UTF8
Codec ID/Info                            : UTF-8 Plain Text
Duration                                 : 2 h 18 min
Bit rate                                 : 28 b/s
Count of elements                        : 954
Stream size                              : 29.2 KiB (0%)
Title                                    : Sun George
Language                                 : English
Default                                  : Yes
Forced                                   : Yes




 

 

 

 

 

 

 

 
Category:Movies > Malayalam
Lang:Malayalam
Total Size:1.48 GB
Info Hash:473a35d48738cf4b8527c82566cb77c6cdfb8294
Added By:sungeorge
Date Added:22-11-2018 09:12:13
Views:125
Hits:10

Download Torrent

Ratings:Not Yet Rated (Log in to rate it)

  


Tracker:
udp://tracker.publicbt.com:80/announce


File List: 



NFO:

Comments

No comments still posted

Powered by 10 Hamsters v2-svn -|- Page Generated In 1.382890 secs.
-|- RSS FEED
Theme By: Nikkbu